#TITLE:Cao Pan Shou;
#SUBTITLE:;
#ARTIST:Show Luo;
#TITLETRANSLIT:Cao Pan Shou;
#SUBTITLETRANSLIT:;
#ARTISTTRANSLIT:La Chi Tuong;
#CREDIT:;
#BANNER:Cao Pan Shou-bn.png;
#BACKGROUND:Cao Pan Shou-bg.png;
#LYRICSPATH:;
#CDTITLE:pm4cd.png;
#MUSIC:Cao Pan Shou.mp3;
#OFFSET:-0.060;
#SAMPLESTART:51.364;
#SAMPLELENGTH:20.000;
#SELECTABLE:YES;
#BPMS:0.000=119.990,52.250=239.990,57.250=119.990,70.750=239.990,75.750=119.970,177.250=239.990,182.250=119.990,275.000=239.990,279.750=119.990,330.250=59.990,331.250=239.991;
#STOPS:;
#BGCHANGES:;
// cache tags:
#FIRSTBEAT:6.750;
#LASTBEAT:332.250;
#SONGFILENAME:Songs/Music V.I.P ^_^/Cao Pan Shou/Cao Pan Shou.sm;
#HASMUSIC:1;
#HASBANNER:1;
#MUSICLENGTH:166.896;
// end cache tags

//---------------dance-single - ----------------
#NOTES:
     dance-single:
     :
     Hard:
     11:
     0.904,0.921,1.000,0.246,1.000,614.000,332.000,41.000,0.000,180.000:
0000
0000
0000
0000
,
0000
0000
0000
0000
0000
0000
0000
0000
0000
0000
0000
1001
0000
0010
0100
0000
,
0100
1000
0000
0010
0100
0000
0010
0001
0000
1001
0000
1001
0000
1000
0001
0000
,
0100
0001
0000
0010
0100
0000
0100
1000
0000
0010
0000
1001
0000
0100
0010
0000
,
0010
0001
0000
0100
1000
0000
0010
1000
0000
1001
0000
1001
0000
0100
0001
0000
,
0001
0010
0000
0010
0100
0000
0100
1000
0000
0000
0000
0101
0000
0000
0000
0010
,
0000
1100
0000
0000
0000
0000
0000
0110
0000
0000
0000
0101
0000
0000
0100
1010
,
0000
0101
0000
1000
0000
0100
0000
0001
0010
0001
0010
0101
0000
0000
0000
0010
,
0000
1100
0000
0000
0000
0002
0000
0110
0000
0000
0000
1100
0000
0000
0010
0110
,
0000
1010
0000
0000
0000
0000
0000
0000
0000
0000
0003
1111
0000
0001
0000
0100
,
0000
0101
0000
0010
0000
0100
0000
0010
0000
0001
0000
0110
0000
0000
1001
0110
,
0000
0101
0000
0010
0000
0001
0000
0010
0000
0100
0000
1100
0000
0010
0000
0001
,
0000
1010
0000
0010
0000
0001
0000
0010
0000
0100
0000
1100
0000
0000
1100
0011
,
0000
1020
0000
0000
0000
0100
0000
0000
0000
0000
0000
0001
0000
0000
0000
0000
,
0000
1000
0000
0000
0000
1130
0000
0001
0000
0100
0000
0011
0000
1000
0000
0100
,
0000
0010
0000
0001
0000
0101
0000
0000
1001
0110
0000
1001
0000
0010
0000
0001
,
0000
0010
0000
0100
0000
1010
0000
0100
0000
0010
0000
1001
0000
1000
0000
0010
,
0000
0001
0000
1000
0000
0011
0000
0000
1100
0011
0000
2001
0000
0000
0000
0000
,
0000
0000
0000
0100
0000
0000
0000
0001
0000
0000
0000
0010
0000
0100
0000
3011
,
0000
0011
0000
0100
0000
0010
0000
0000
0110
0110
0000
1100
0000
0110
0000
0110
,
0000
0000
1001
0000
0000
0000
0010
0000
0000
0000
0000
0000
0000
0000
1100
0000
1100
0000
0000
0000
0011
0000
0000
0000
1000
0100
0000
0010
1001
0000
0000
0000
,
1001
0000
0110
0000
0001
0000
1010
0000
0101
0101
0000
1010
0000
0011
0000
0011
,
0000
1100
0000
0000
0000
0020
0000
1000
0100
0001
0100
1000
0100
0001
0100
1031
,
0000
1001
0000
1010
0000
0100
0000
0000
0110
0110
0000
1001
0010
0100
0010
0101
,
0000
1010
0000
0110
0000
0010
0000
1000
0100
0010
0000
1100
0010
0101
0010
1100
,
0000
1100
0000
0011
0000
0100
0000
0000
1100
1100
0000
0011
0000
0100
0000
1011
,
0110
0110
1001
1001
1001
0000
1001
0000
0000
0100
0000
0011
0000
0000
0000
2101
,
0000
0010
0000
0101
0000
0110
0000
0100
0000
0110
0000
0011
0000
0100
0000
3121
,
0000
0000
1001
0101
0000
1100
0000
1000
0000
0101
0000
1100
0000
0001
0000
1132
,
0000
0010
0000
1010
0000
1100
0000
0010
0000
1100
0000
0110
0000
0100
0000
1113
,
0000
0000
0000
0111
0000
0000
0000
1101
0000
0000
0000
1011
0000
0000
0000
1120
,
0000
1000
0000
1001
0000
0101
0000
1000
0000
1001
0000
1100
0000
1000
0000
2131
,
0000
0000
0011
0110
0000
0101
0000
0010
0000
0011
0000
0101
0000
0010
0000
3112
,
0000
1000
0000
0110
0000
1010
0000
1000
0000
0110
0000
1100
0000
0010
0000
1113
,
0000
0000
0111
0000
0000
1110
0000
0000
0000
0000
0000
1101
0000
0000
0000
0002
,
0000
0000
0000
1010
0000
0000
0000
0000
0000
0000
0000
1100
0000
0000
0000
1113
,
0000
0000
0000
1011
0000
0000
0000
1101
0000
0000
0000
0111
0000
0011
0110
1100
,
0000
0100
0000
0001
0000
0010
0000
0100
0000
0001
0000
1000
0000
0010
0000
0100
,
0000
0001
0000
1000
0000
0100
0000
0010
0000
0001
0000
0100
0000
0010
0000
0001
,
0000
0010
0000
0100
0000
1000
0000
0010
0000
0100
0000
0001
0000
0010
0000
0001
,
0000
0100
0000
0010
0000
1001
0000
0010
0000
0000
0000
1100
0000
1100
0000
1100
,
0000
0001
0000
0100
0000
0011
0000
0100
0000
0010
0000
0001
0000
0100
0000
1010
,
0000
0000
0110
1001
0000
0011
0000
0100
0000
0010
0000
0001
0000
0010
0000
0110
,
0000
1000
0000
0001
0000
0011
0000
0100
0000
1000
0000
0010
0000
0100
0000
1110
,
0000
0000
1110
0000
0000
1002
0000
0000
0000
0000
0000
0000
0000
1000
0000
0000
,
0000
0010
0000
0100
0000
1000
0000
0100
0000
1013
0000
1010
0000
0001
0000
1000
,
0000
0000
0011
0011
0000
0110
0000
1001
0000
1001
0000
1010
0000
0010
0000
0000
,
0000
0000
0101
0000
0101
0000
0000
0000
0000
0000
0110
0000
0000
0000
1000
0100
0000
0010
1001
0000
0000
0000
1001
0000
0000
0000
0110
0000
0000
0000
0001
0000
,
0000
0000
0110
0110
0000
1001
0000
0101
0000
0101
0000
1010
0000
0000
0000
0002
,
0000
1000
0100
0010
0100
1000
0100
0010
0100
1013
0000
1010
0000
0011
0000
1000
,
0000
0000
0011
0011
0000
1100
0010
0100
1000
1001
0000
0110
0000
1001
0000
0001
,
0000
0100
0010
0001
0000
0011
0100
1010
0100
0011
0000
1100
0000
0011
0000
0100
,
0000
0000
1100
1100
0000
0101
0000
1000
0000
1022
1100
1100
2233
0011
0011
0000
,
3311
0000
0000
0100
0000
0011
0000
0000
0000
2011
0000
0001
0000
0110
0000
0011
,
0000
0001
0000
0101
0000
0110
0000
0001
0000
3121
0000
0000
0101
1100
0000
0101
,
0000
0001
0000
1001
0000
0101
0000
0100
0000
1132
0000
1000
0000
1100
0000
1010
,
0000
0100
0000
1010
0000
1100
0000
0010
0000
1113
0000
0000
0000
1011
0000
0000
,
0000
1101
0000
0000
0000
0111
0000
0000
0000
1120
0000
0001
0000
1100
0000
1001
,
0000
0001
0000
1100
0000
0101
0000
0001
0000
2131
0000
0000
0101
0011
0000
0110
,
0000
0001
0000
0011
0000
0110
0000
0001
0000
3112
0000
0100
0000
1010
0000
1100
,
0000
0010
0000
1100
0000
1010
0000
0100
0000
1113
0000
0000
0111
0000
0000
1110
,
0000
0000
0000
0000
0000
1101
0000
0000
0000
0201
0000
0010
1000
0000
0001
0010
,
0000
0010
1000
0000
0010
0001
0000
1001
0000
2301
0000
0100
0010
0000
0001
0010
,
0000
0001
0100
0000
0010
0001
0000
0010
0000
3102
0000
0010
0100
0000
1000
0100
,
0000
0010
1000
0000
0100
0010
0000
1100
0000
1203
0000
0001
1000
0000
0010
0001
,
0000
1000
0010
0000
1000
0001
1000
0010
1000
0311
0000
1000
0000
0101
0000
0010
,
0001
0000
0100
0011
0000
1010
0000
0000
0000
0101
0000
0000
1100
0011
0000
1001
,
0100
0000
0001
1010
0000
0020
0000
0000
0000
0131
0000
0000
0000
1010
0000
0000
,
0000
0000
0000
1100
0000
0011
0000
0000
0000
0101
0000
1010
0202
0000
0000
0000
,
0000
0000
0000
0000
0000
0000
0000
0000
0000
0000
0000
0000
0000
0000
0000
1313
,
0000
0001
0001
1001
0000
0100
0000
0010
0000
0001
0010
0000
0100
1001
0000
0100
,
0000
0000
0000
0011
0000
0000
0101
1010
0000
0100
0010
0000
0010
1001
0000
0010
,
0000
0000
0000
2000
0000
0001
0000
0011
0000
0100
0000
3200
0000
1001
0000
1010
,
0000
0301
0000
1101
0000
0000
0000
1101
0000
0000
0000
1101
0000
0000
0000
1101
,
0000
0000
0000
0121
0000
1001
0000
1100
0000
1101
0000
1001
0000
1101
0000
1100
,
0000
0101
0000
1132
0000
0000
1010
1100
0000
1010
0000
0110
0000
1110
0000
1010
,
0000
1100
0000
2113
0000
0101
0000
0011
0000
0111
0000
0011
0000
0111
0000
0011
,
0000
0110
0000
3111
0000
0000
0000
1011
0000
0000
0000
1110
0000
0000
0000
1101
,
0000
0000
0000
2011
0000
0101
0000
0110
0000
0111
0000
0110
0000
0111
0000
0110
,
0000
0011
0000
3121
0000
0000
1001
1100
0000
0101
0000
1001
0000
1101
0000
0101
,
0000
1001
0000
1231
0000
1001
0000
0011
0000
1010
0000
1001
0000
1011
0000
1001
,
0000
0011
0000
1311
0000
0000
1011
0000
0000
1011
0000
0000
0000
0000
0000
0110
,
0000
0000
0000
1101
0000
0000
1101
0000
0000
2202
0000
0000
0000
0000
0000
0000
,
3303
1111
0000
0000
0000
0000
0000
0000
0000
0000
0000
0000
0000
0000
0000
0000
;
